In 2005, together with both the Chorus Sant'Ilario di Rovereto and the Chorus of Valle Dei Laghi di Padergnone she became the character of the “Echi d’infinito” project, a recovery of Alpine pop songs and also of her own songs accompanied only by human voice. L'errore . Watch the video for Per un'ora d'amore from Antonella Ruggiero's Big Band for free, and see the artwork, lyrics and similar artists. Anni Luce 1997 - 2017 by Subsonica. Subsonica )" PERFORMER "Antonella Ruggiero" FLAGS DCP INDEX 01 04:09:27 TRACK 03 AUDIO TITLE "Solo tu (feat. Let us know what you think of the Last.fm website. Registrazioni moderne, an album by Antonella Ruggiero on Spotify. Download Track: Nei Nostri Luoghi The song text is absent Explore album. In 2005 she re-entered the Sanremo contest with “Echi d’infinito”, she was awarded first prize in the “Women” category, and third in overall classification. 2. In the same year they are contacted by Antonella Ruggiero who asks them to rework two Matia Bazar tracks (‘Il video sono io’ and ‘Per un'ora d'amore’) for her album ‘Registrazioni Moderne’. Do you know any background info about this track? Albums. Creative Commons Attribution-ShareAlike License. Start the wiki, Do you know the lyrics for this track? Leave feedback. 01. Ma L'Amore No. In 2010 she made two new album: "Contemporanea tango" (live CD), is a "trip" in the history of Tango and "I regali di natale" (double CD) is an album dedicated to the Christmas music from the Middle Ages to the 1940s, the disc contains musical atmospheres from classic music to jazz music, with slight hints of pop and electronic music. 1997 - Per un'ora d'amore (feat. Related Artists. The Matia Bazar original version peaked at number eleven in August 1986. 3:52 0:30. our partners use cookies to personalize your experience, to show you ads based on your interests, and for measurement and analytics purposes. In 2003 she was back in the Sanremo contest with “Di un amore” (where she finished in ninth place). ~ Drago Bonavich . TITLE "Per un'ora d'amore (feat. Pop hits from the band included: “Ma perché”, “Solo tu”, “Per un’ora d’amore”, “Stasera che sera”, “Cavallo bianco”, “Il video sono io”, “Mister Mandarino”, “Ti Sento” and “Vacanze romane”. On 25 November 2004 she performed at The Sugar Club in Dublin, accompanied by Mark Harris (piano), Carlo Cantini (strings) and Ivan Ciccarelli (percussions). Matia Bazar scored some further international hits in the 1970s with 'Per un' ora d'amore' (1975) and 'S… read more Matia Bazar is an Italian pop band formed in Genoa in 1975 by Piero Cassano (keyboards), Aldo Stellita (bass), Carlo Marrale (guitar), Giancarlo Golzi (drums) and Antonella Ruggiero (vocals… While maintaining the pop music that made her famous even abroad, Antonella Ruggiero also lends her voice to music of different origins and culture. For a hour of love. Nuvole Rapide. 0 Followers. After an inspiring length of time in India, Ruggiero began her solo career with the release of an album called Libera in 1996. Her partnership with the group lasted until 1989. Enjoy the videos and music you love, upload original content, and share it all with friends, family, and the world on YouTube. In 2014 she participated once again in Sanremo with two songs "Da lontano" and "Quando balliamo", during first evening of the Festival, the audience chose to send ahead in the competition the song "Da lontano", which was ranked in twelfth place in the end. Profile: Italian Electronic/Rock band, formed in 1996 in Turin. Javascript is required to view shouts on this page. 3. Preview: 30 sec only Quality: 320 kbps Size: 12.19 Mb Length: 5:12. 02. "C'è tutta una vita, in un'ora d'amore". Download Album. 5:29 0:30. Per un ora d' amore (Hungarian translation) Artist: Subsonica; Featuring artist: Antonella Ruggiero; Song: Per un ora d' amore 5 translations; Translations: English #1, #2, Greek, Hungarian, Spanish Hungarian translation Hungarian. Italy 9. In October 2009, the German dance act Scooter released a cover version of "Ti Sento" featuring the vocals of Ruggiero. youtube.com. One of the tracks is … Subsonica. Antonella Ruggiero was born in Genoa, Liguria and made her first recording, Io Matia ("I Matia" in English), in 1974. Matia is the stage name under which Antonella Ruggiero officially began her solo career with the first and rare 45 rpm vinyl record (Matia in Genoa's language means "crazyness" or "crazy woman"), however had already collaborated (unofficially) with the Jet in their LP vinyl record Faith, Hope and Charity lending her leading voice in the choruses. Connect your Spotify account to your Last.fm account and scrobble everything you listen to, from any Spotify app on any device or platform. Also available in the iTunes Store Music Videos. Donne in rinascita - Fabio Volo - Più dei tramonti, più del volo di un uccello, la cosa meravigliosa in assoluto è una donna in rinascita. Per un'ora d'amore (Live) 5. In 1998, she came in second place at the San Remo Festival for singing "Amore Lontanissimo." Antonella Ruggiero (born 15 November 1952) is an Italian singer. It was from the union of some members of both the Jet and Matia that in 1975 the Matia Bazar were born. Per un ora d' amore (English translation) Artist: Subsonica; Featuring artist: Antonella Ruggiero; Song: Per un ora d' amore 5 translations; Translations: English #1, #2, Greek, Hungarian, Spanish English translation English. Esa + La Pina + Otierre)" PERFORMER "Antonella Ruggiero" FLAGS DCP INDEX 01 09:38:48 TRACK 04 AUDIO TITLE "Vacanze romane (feat. The arrangements are curated by Stefano Barzan. 3 talking about this. Falla salire di classifica lasciando un commento o cliccando su Mi piace e su +1 qui sotto! Altri testi . Plan automatically renews after trial. For a hour of love i don't know what I'd do. She also appeared in the accompanying music video, playing an opera singer. On November 20th, 2018 the album "Quando facevo la cantante" was released, recalling her solo career from 1996 to 2018. In 1999 she stood up at the Ariston Theater stage with “Non ti dimentico (Se non ci fossero le nuvole)” written together with her husband Roberto Colombo, and was classified in second place again. (Balzac) Brani inediti, poesie musicate, cover di canzoni amate Irene Dolzani - Pianoforte e voce Subsonica The eponymous debut album comes in ’97, shortly followed by a stunning performance, opening for U2, on the MTV Day main stage. In 1975 with Piero Cassano (voice and keyboards), Aldo Stellita (bass), Giancarlo Golzi (drums), Carlo Marrale (voice and guitars) she gave birth to the historical group Matia Bazar. Then, seven years after, in 1996 she made her solo debut with the album Libera, the result of a cathartic journey carried out in new cultural and musical atmospheres. Three months on us. Quando si rimette in piedi dopo la catastrofe, dopo ... FASMAS. Current line up: Davide Di Leo aka Boosta (keyboards, bass) Luca Vicini aka Vicio (bass) Samuel Umberto Romano aka Samuel (vocals) Massimiliano Casacci aka C-Max (guitar) Enrico Matta aka Ninja (drums) Sites: subsonica.it, Facebook, MySpace, Wikipedia. In spring the single ‘Istantanee’ (Snapshots) is released followed by the debut album ‘SubsOnica’. The single peaked at number ten on the German Singles Chart in October 2009, becoming Ruggiero's first German top ten hit in her career. Playing via Spotify Playing via YouTube Playback options On June 18th 2015, a collaboration with ConiglioViola gives life to "Requiem Elettronico", a collection of ten Italian pop songs focused on the theme of death. On November 13th, 2015 the album "Cattedrali" was released debuting on position N.69 in the FIMI ranking. Go directly to shout page. Ludus. Released 1998 ℗ 1998 EMI Music Italy s.r.l. Some user-contributed text on this page is available under the Creative Commons Attribution-ShareAlike License; additional terms may apply. Antonella Ruggiero & Subsonica Song: Per Un Ora D'amore Has been played on. Find the song lyrics for Antonella Ruggiero - Top Tracks. Scrobbling is when Last.fm tracks the music you listen to and automatically adds it to your music profile. Per un'ora d'amore si trova in 5544ª posizione! This album included the participations of Ennio Morricone, who companied "And Will You Love Me", and Giovanni Lindo Ferretti, who co-wrote "Di perle e inverni" with Ruggiero and Roberto Colombo. On February 19th, 2014 the album "L'impossibile è certo" collecting  unpublished songs from 1989 debuted, ranking 18th on the FIMI chart. Immediately after the festival, Ruggiero released her third CD as soloist, Sospesa. Subsonica) 1997 - Fantasia (feat. On October 31st, 2015, she sings Domenico Modugno's "In the blue painted blue" accompanied by children's choirs during the closing ceremony of the EXPO world fair in Milan, an outstanding event hosting the President of the Republic Sergio Mattarella and the highest national and international institutional officials. Details File Size: 1225KB Duration: 3.400 sec Dimensions: 371x498 Created: 8/2/2020, 8:12:24 AM A new version of Last.fm is available, to keep everything running smoothly, please reload the site. Radio Action 101: 3: Multiradio: 2: Unica Radio: 1: Radio Stella Piemonte: 1: Radio Giulia: 1: Love FM: 1: Ecuador 6. Subsonica) Antonella Ruggiero 5:29: 14 Songs, 43 Minutes Released: Nov 16, 2016 ℗ 2016 IIF; Also Available in iTunes 50 million songs. The album was released alongside a DVD, containing the recording of two live performances and some film clips shot by ConiglioViola. It included the song "Per Un'Ora d'Amore," which climbed the most important Italian charts. Let us know what you think of the Last.fm website. LT → Italian, English → Subsonica → Per un ora d' amore → Hungarian. Anni Luce 1997 - 2017. by Subsonica. Details Duration: 7.000 sec Dimensions: 308x498 Created: 8/2/2020, 8:12:29 AM. It features the organist Fausto Caporali recorded live in the Cathedral of Cremona on October 24, 2014. On the disc, 15 songs from Antonella Ruggiero's repertoire are given a new sound, played on the classical piano by the master Andrea Bacchetti. This song was dedicated to Aldo Stellita, former stage companion (was founder member/author/bass player of the Matia Bazar) and for many years her friend, who died prematurely in 1998. A.Ruggiero - IlFuocodellaPassione - Testo Completo - YouTube C'è tutta una vita, in un'ora d'amore.Per un'ora d'amore viene composta e … Where people listen. A A. Egy szerelmes óráért. 03. Related GIFs. Per un'ora d'amore (feat. Per un'ora d'amore - Subsonica. 0 Monthly Listeners. Per un'ora d'amore - Subsonica feat. Discover top playlists and videos from your favorite artists on Shazam! She is frequently touring with different kinds of concerts: "Sacrarmonia", a concert dedicated to sacred music of the world; "Tribute to Amalia Rodrigues", a concert committed to the Portuguese fado and its more famous performer, "Four steps for Broadway", a recital devoted to the most popular Broadway musicals (“Tonight”, “Over The Rainbow”, “Summertime”); and the Stralunato Recital Concert where she performs her most meaningful and famous songs. The album includes the collaboration with iconic pop singer Antonella Ruggiero: the cover version of her “Per Un’Ora D’Amore” becomes a radio hit, and paves the way for the album, which sells over 200k copies. That was followed by 1997's Registrazioni Moderne, produced by Roberto Colombo. On 4 June 2004 she performed a concert in the Brooklyn Museum of New York as a worldwide preview of her CD/DVD entitled Sacrarmonia Live (Il viaggio) with sacred songs of Christian inspiration from several parts of the world. La Vida - Voces De Italia: 6: San Marino 1. In 2007 she participated once again in Sanremo with the song "Canzone fra le guerre" (written in collaboration with Cristian Carrara), which was ranked in tenth place in the end. LT → Italian, English → Subsonica → Per un ora d' amore → English. She is classified as a light soprano and has an extraordinary voice that far exceeds the 4 octaves thanks to the use of the whistle register[citation needed]. She has performed many times in English-language countries, including a version of “Ti sento” known in the United Kingdom as “I Feel You”. In October 1989, she decided to leave the band. On November 25th, 2016 the album "La vita imprevedibile delle canzoni", recorded at Fazioli Pianoforti factory in Sacile was released for Sony Classical. Details File Size: 3008KB Duration: 3.520 sec Dimensions: 498x443 Created: 3/23/2020, 8:11:13 PM Subsonica Concerto del primo maggio 2012 - May 1, 2012 May 01 2012 Subsonica Giardini del Frontone, Perugia - Jun 16, 2012 Jun 16 2012 Last updated: 14 Nov 2020, 12:51 Etc/UTC Watch the video for Per un'ora d'amore from Subsonica's Coi piedi sul palco for free, and see the artwork, lyrics and similar artists. Start your free trial * Learn more * New subscribers only. https://en.wikipedia.org/w/index.php?title=Antonella_Ruggiero&oldid=997314540, Articles with unsourced statements from October 2013, Wikipedia articles with MusicBrainz identifiers, Wikipedia articles with WORLDCATID identifiers, Creative Commons Attribution-ShareAlike License, Liberamusic (her independent label) Edel Music (distribution), 2015 - Requiem Elettronico (feat. It was number one in Belgium and Italy. Details File Size: 5013KB Duration: 5.900 sec Dimensions: 498x401 Created: 8/2/2020, 8:12:41 AM … Quando si rimette in piedi dopo la catastrofe, dopo ... Più dei tramonti, più del volo di un uccello, la cosa meravigliosa in assoluto è una donna in rinascita. Altri testi tradotti di Subsonica. Find out at which radio station you can hear antonella ruggiero - per un'ora d'amore ft subsonica antonella ruggiero - per un'ora d'amore ft subsonica - Listen on Online Radio Box This site uses cookies . Rapsodija Trio)" PERFORMER "Antonella Ruggiero" FLAGS DCP INDEX 01 14:01:40 TRACK 05 AUDIO TITLE … Radioestensioni Subsonica Istantanee Subsonica More by Subsonica. Playing via Spotify Playing via YouTube… During Sanremo's third evening (dedicated to hosts), she performed unaccompanied singing in contest with both the Chorus of Valle Dei Laghi and the Chorus of S. Ilario. Versions: #1 #2. Antonella Ruggiero, Category: Artist, Albums: Quando facevo la cantante, Ludus, L’impossibile è certo, Souvenir D'Italie, Singles: Senza, Top Tracks: Per un'ora d'amore, Ma L'Amore No, Echi d’infinito (feat. 9:05 PREVIEW 18 Songs, 1 Hour, 36 Minutes. 5:39 PREVIEW Nicotina groove (Live) 6. #Antonella-Ruggiero; #matia; #smile A A. ConiglioViola), This page was last edited on 30 December 2020, at 23:25. In the 1998 edition of the Sanremo Festival placed second with “Amore lontanissimo”, which also earned the critics' award for best arrangement. Ti Sento was their major hit. The boxed set contains a total of 115 songs recorded both live and in studio, sorted into 6 CDs: The dialectal song, My songs, The song of the author, Songs from the world, The sacred and the classic, The oddities. View all on Spotify. Bluvertigo) 1997 - Solo tu MIX; 1998 - Amore lontanissimo; 1998 - Donde estas; 1999 - Non ti dimentico; 1999 - Controvento; 1999 - Non dirmi dove, non dirmi quando; 1999 - Il sole al nadir (radio vers., jungle vers.) Add lyrics on Musixmatch.

Piano Di Studi Medicina Sapienza, Sinonimo Di Complimenti, Scienze Naturali Bicocca, Anniversario Diritti Dei Bambini, Sap S4 Hana Architecture, Sinonimo Di Formulare Una Richiesta,